The Inbetweeners 2 2014 HDRip XViD 700MB-iNK

title
The Inbetweeners 2 2014 HDRip XViD-juggs ETRG

How To Train Your Dragon 2 (2014) HDRiP XViD – EVO 8

title
How To Train Your Dragon 2 (2014) HDRiP XViD - EVO 850MB1L

FD The Sessions (2012) BluRay 720p 600MB=

title

Airplane Vs Volcano (2014) BRRiP XVID AC3 MAJTIC

title
http://www.imdb.com/title/tt3417334 RunTime: 91 min PLOT: When a commercial airliner is trapped within a ring of erupting volcanoes, the passengers and crew must find a way to survive - without landing. But when the relentless onslaught of lava and ash causes fear and distrust amongst those onboard, it isn't just the volcanoes that are life-threatening. Everyone must learn to work together if they are to survive their epic flight of fire.

The Hunted (2013) W- x264-RARBG

title
The Hunted 2013 WEB-DL x264-RARBG FiLE SiZE: 757.65 MiB MOViE iNFO: Rating: 5.5 Genre: Thriller Storyline: Chasing their dream of landing their own hunting show, two hunters head into the dense, secluded mountains of West Virginia only to realize they are not alone. http://www.imdb.com/title/tt3149900/ - iNFO TECH - Release           : The Hunted 2013 WEB-DL x264-RARBG Length            : 757.65 MiB for 01:27:45 Bitrate           : 1207 kb/s Audio             : aac, 48000 Hz, 5:1 (eng) Video             : 720x400 23.98 fps(r) (eng) - SCREENSHOTS - - Single link No password No Extraction - rapidgator.net:

FD Obvious Child (2014) BluRay 720p 600MB=

title

Grace of Monaco 2014 EngBrRipXvidAc3-GTPD

title
Grace of Monaco 2014 EngBrRipXvidAc3-GTPD GIVE SUPPT F HARD WK !! Genre: Biography / Drama / Romance Runtime : 103 iMDB iNFO http://www.imdb.com/title/tt2095649/ Size: 713.51 MB Story Line Story : The story of former Hollywood star Grace Kelly's crisis of marriage and identity, during a political dispute between Monaco's Prince Rainier III and France's Charles De Gaulle, and a looming French invasion of Monaco in the early 1960s. [b]Video Info[/b] File: Grace of Monaco [2014] EngBrRipXvidAc3-GTPD.avi Size: 742278066 bytes (707.89 MiB), duration: 01:42:45, avg.bitrate: 963 kb/s Audio: ac3, 48000 Hz, 5:1, 128 kb/s Video: mpeg4, yuv420p, 768x320, 24.00 fps(r) INFMATION If you would like to checkout some of my other uploads just enter GTPD in the search box and click the search button

OB The Purge Anarchy 2014 HDRip XviD AC3-EVO

title
The Purge Anarchy 2014 HDRip XviD AC3-EVO # IMDb : http://www.imdb.com/title/tt2975578/ Rating: 6.7 Genre: Action / Horror / Thriller Plot: A couple are driving home when their car breaks down just as the Purge commences. Meanwhile, a police sergeant goes out into the streets to get revenge on the man who killed his son, and a mother and daughter run from their home after assailants destroy it. The five people meet up as they attempt to survive the night in Los Angeles. # Info : Size: 1.44 GiB Duration: 01:43:28 Bitrate: 1989 kb/s Audio: ac3, 48000 Hz, 5:1, 384 kb/s Video: 720x304 # Screenshots : # Download Links : Rapidgator: Uploaded: http://uploaded.net/file/rl2imy0s/The_Purge_Anarchy_2014_HDRip_XviD_AC3_EVO_ATOM.part1.rar http://uploaded.net/file/5ond5k7m/The_Purge_Anarchy_2014_HDRip_XviD_AC3_EVO_ATOM.part2.rar Oboom: https://www.oboom.com/FCG4LEFP/The_Purge_Anarchy_2014_HDRip_XviD_AC3_EVO_ATOM.part1.rar https://www.oboom.com/UEO9R6FQ/The_Purge_Anarchy_2014_HDRip_XviD_AC3_EVO_ATOM.part2.rar Please post a Thanks before you leave.. . rapidgator.net:

The Giver (2014) 720 W- 750MB MC

title
The Giver (2014) 720 WEB-DL 750MB MC iNFO: http://www.imdb.com/title/tt0435651/ Storyline: This film, based on Lois Lowry's book, tells the story of a perfect world. Everyone here is happy. When Jonas is 18 years old, he's chosen to be the community's Receiver of Memories. He enters into training with an old man called The Giver. From the Giver, Jonas learns about pain, sadness, war, and all the unhappy truths of the "real" world. He quickly realizes that his community is fake. Confronted with this reality, Jonas faces difficult choices about his own life and his future. Language(s): English Genre(s): Drama Sci-Fi Size: 785934603 bytes (749.53 MiB), duration: 01:37:11, avg.bitrate: 1078 kb/s Audio: aac, 48000 Hz, stereo (eng) Video: h264, yuv420p, 1280x544, 24.00 fps(r) Subtitles: eng - My Upload. - Working 100%. - Interchangeable Links. - Added 10% Recovery Record. - Tested Archive After Compression. - No Password Required. DOWNLOAD AS FAST AS YOU CAN BEFE LiNKS GET DELETED BY DMCA DON'T FGET TO REPLY iF YOU LiKE MY POST - THANK YOU rapidgator.net:

Alpha Omega The Legend Of The Saw Tooth Cave (2014

title
Alpha and Omega The Legend Of The Saw Tooth Cave (2014) HDRIP XVID AC3 ACAB INFMATION Format                                   : AVI Format/Info                              : Audio Video Interleave File size                                : 666 MiB Duration                                 : 45mn 11s Overall bit rate                         : 2 060 Kbps Video ID                                       : 0 Format                                   : MPEG-4 Visual Format profile                           : Advanced Simple@L5 Format settings, BVOP                    : 2 Format settings, QPel                    : No Format settings, GMC                     : No warppoints Format settings, Matrix                  : Default (H.263) Muxing mode                              : Packed bitstream Codec ID                                 : XVID Codec ID/Hint                            : XviD Duration                                 : 45mn 11s Bit rate                                 : 1 669 Kbps Width                                    : 720 pixels Height                                   : 400 pixels Display aspect ratio                     : 16:9 Frame rate                               : 23.976 fps Color space                              : YUV Chroma subsampling                       : 4:2:0 Bit depth                                : 8 bits Scan type                                : Progressive Compression mode                         : Lossy Bits/(Pixel*Frame)                       : 0.242 Stream size                              : 539 MiB (81%) Writing library                          : XviD 65 Audio ID                                       : 1 Format                                   : AC-3 Format/Info                              : Audio Coding 3 Mode extension                           : CM (complete main) Format settings, Endianness              : Big Codec ID                                 : 2000 Duration                                 : 45mn 11s Bit rate mode                            : Constant Bit rate                                 : 384 Kbps Channel count                            : 6 channels Channel positions                        : Front: L C R, Side: L R, LFE Sampling rate                            : 48.0 KHz Bit depth                                : 16 bits Compression mode                         : Lossy Stream size                              : 124 MiB (19%) Alignment                                : Aligned on interleaves Interleave, duration                     : 64 ms (1.53 video frames) Interleave, preload duration             : 192 ms Title                                    : English SCREENSHOTS DOWNLOAD WITH RAPIDGAT Single File If you like my post, don't forget to say thanks and help keep the thread alive. Thanks You! rapidgator.net: